watch captain sindbad 1963 online - free streaming resources

  • Download or watch Captain Sindbad free full online streaming ...

    Release Year: 1963 Country: USA, West Germany Runtime: 85 ... Watch movie links are in high quality and will let you to watch Captain Sindbad online streaming easily.

    http://www.nyalines.com/watch-movie-online-/watch-Captain-Sindbad-movie-free-online/
  • Watch Captain Sindbad Online (Streaming Links)

    Watch Captain Sindbad online and related movie streaming links . overview; full cast; companies; pictures; mistakes; trivia; quotes; literature; articles

    http://www.moviesplanet.com/movies/116738/captain-sindbad/links
  • Watch Captain Sindbad (1963) Free Online

    Watch full length Captain Sindbad Movie for Free Online. Sign Up; Login. Email/Username Password. Forgot password? X. Movies. TV. ... Watch Captain Sindbad (1963) Free Online.

    http://www.ovguide.com/captain-sindbad-9202a8c04000641f800000001cfda19b
  • Watch CAPTAIN SINDBAD 1963 online. Search free TV links

    Watch Captain Sindbad online and related movie ... Download or watch Captain Sindbad free full online streaming in high ... free Captain Sindbad (1963) ...

    http://www.tracktvlinks.com/watch-captain-sindbad-1963
  • Captain Sindbad (1963) | Watch Movies Online Free, Full ...

    Captain Sindbad 1963 Watch Online – Stagevu Links. Captain Sindbad 1963 Watch Full Movie. 999 10 Posted in Action, Adventure, Fantasy, Movies ...

    http://www.iwannawatch.net/2011/07/captain-sindbad-1963/
  • Direct-Movies.com: Captain Sindbad movies torrents downloads ...

    Direct-Movies Captain Sindbad torrents download and streaming links 1963

    http://www.direct-movies.com/download/395730/Captain+Sindbad.torrent.html
  • Captain Sindbad (1963) Hollywood Movie Watch Online | go4film.com

    Captain Sindbad 1963 Megavideo,putlocker,novamov,youtube Movie Link Watch Online and Review Director : Byron Haskin Actor : Abraham Sofaer,Bernie Hamilton,Charles ...

    http://www.go4film.com/watch/kapitan-sindbad-watch-online
  • Download movie Captain Sindbad. Watch Captain Sindbad online ...

    Captain Sindbad. 326 Magic Tricks Light The Screen As Sinbad Fights The Evil El Carim!. . ... 19 June 1963. Genre: Fantasy ... WATCH ONLINE $0.40.

    http://movieberry.com/captain_sindbad/
  • Captain Sindbad (1963) - IMDb

    Captain Sindbad 85 min ... 19 June 1963 (USA) See more » Also Known As: Kapitän Sindbad See more » ... Watch Movies Online Shopbop

    http://www.imdb.com/title/tt0056904/
  • Watch Movie: Captain Sindbad online free.

    Watch Free Movies and TVShows. Category: Movies, Title: Captain Sindbad , Release Year: 1963 , Plot: Scimitars flash... danger flames... as adventure's mightiest hero ...

    http://www.vidics.eu/watch/48761/Captain-Sindbad-1963.html
  • Captain Sindbad 1963 - Fantasy Movie. Watch movies online

    All information online related to the Fantasy Movie - Captain Sindbad 1963. Watch movies online .

    http://www.areapal.com/world/local/Captain%2BSindbad%2B%2B%2B1963
  • Captain Sindbad (1963) - Stagevu: Your View

    Captain Sindbad (1963) Can't watch this? ... player,and it will not play,cause it will not stream; it will not do anything.

    http://stagevu.com/video/xvhnlmddmfqs
  • captain sindbad 1963 eng subtitle » Download Free Software ...

    captain sindbad 1963 eng subtitle VA ... zin 3x zin | watch twinklight online megavideo ... private gladiator stream ...

    http://rabbit44.org/db/captain+sindbad+1963+eng+subtitle.html
  • Free Captain Sindbad 1963 5172 MP3, LYRIC and Video Download

    Free download captain sindbad 1963 5172 mp3 with lyrics and video. offcourse you can give rating for ... failed to open stream: ... Susan Boyle - someone to watch ...

    http://cowmp3.com/download-captain-sindbad-1963-5172-mp3.html
  • Captain Sindbad 1963 SUBTITLE » Download Free Software ...

    Captain Sindbad 1963 SUBTITLE VA ... watch mickey flanigan online megavideo ... koisuru boukun streaming sub ita ...

    http://rabbit43.org/cd/Captain+Sindbad+1963+SUBTITLE.html
  • Captain Sindbad DVD Rental, Rent Captain Sindbad Movie Online

    Your source for Captain Sindbad reviews and trailers online. ... Captain Sindbad (1963) ... Watch Trailers;

    http://www.blockbuster.com/browse/catalog/movieDetails/5197
  • Captain Sindbad - Movie (1963) | LocateTV

    Find out where and when you can watch Captain Sindbad on TV or online and get the best prices for DVDs of the movie. ... Movie (1963) Add to My Picks; Embed;

    http://www.locatetv.com/movie/captain-sindbad
  • Captain Sinbad 1963 [Hyperdrive25] (download torrent) - TPB

    Captain Sindbad 1963 ----- (aka KAPIT„N SINDBAD) (1963, U.S ... 0.091 Stream size : 405 MiB (87% ... WATCH ONLINE FOR FREE ON TUBE+.

    http://thepiratebay.org/torrent/6778928/Captain_Sinbad_1963_%5BHyperdrive25%5D
  • Captain Sinbad 1963 [hyperdrive25] Torrent - Seedpeer

    Captain Sindbad 1963----- (aka KAPIT ... Sindbad breaks free of his ropes and challenges the ruler to a fair fight. ... Stream size : 405 MiB (87%) ...

    http://www.seedpeer.me/details/3896037/Captain-Sinbad-1963-[Hyperdrive25].html
Those are web search results for "captain sindbad 1963" and may change in time. We are not affiliate with any of these websites. If some of the links harm copyright laws please see our DMCA and Copyright page.

twitter twitter

No tweets about "captain sindbad 1963".
Be the first to tweet about it